Sete Minutos Depois da Meia-Noite [A Monster Calls, 2017] DVDScr – Legendado

468x60

Conor é um garoto de 13 anos de idade, com muitos problemas na vida. Seu pai é muito ausente, a mãe sofre um um câncer em fase terminal, a avó é uma megera, e ele é maltratado na escola pelos colegas. No entanto, todas as noites Conor tem o mesmo sonho, com uma gigantesca árvore que decide contar histórias para ele, em troca de escutar as histórias do garoto. Embora as conversas com a árvore tenham consequências negativas na vida real, elas ajudam Conor a escapar das dificuldades através do mundo da fantasia.

img-download
Título Traduzido: Sete Minutos Depois da Meia-Noite
Título Original: A Monster Calls
Lançamento: 2017
Formato: DVDScr
Áudio/Idioma: Legendado
Legenda/Idioma: Português do Brasil

MEDIAINFO
Format : MPEG-4 Visual
Format profile : Advanced Simple@L5
Format settings, BVOP : 2
Format settings, QPel : Yes
Format settings, GMC : No warppoints
Format settings, Matrix : Default (H.263)
Muxing mode : Packed bitstream
Codec ID : XVID
Codec ID/Hint : XviD
Duration : 1 h 48 min
Bit rate : 1 607 kb/s
Width : 720 pixels
Height : 304 pixels
Display aspect ratio : 2.35:1
Frame rate : 29.970 (30000/1001) FPS
Color space : YUV
Chroma subsampling : 4:2:0
Bit depth : 8 bits
Scan type : Progressive
Compression mode : Lossy
Bits/(Pixel*Frame) : 0.245
Stream size : 1.21 GiB (86%)
Writing library : XviD 1.2.1 (UTC 2008-12-04)

Audio
ID : 1
Format : AC-3
Format/Info : Audio Coding 3
Mode extension : CM (complete main)
Format settings, Endianness : Big
Codec ID : 2000
Duration : 1 h 48 min
Bit rate mode : Constant
Bit rate : 256 kb/s
Channel(s) : 2 channels
Channel positions : Front: L R
Sampling rate : 48.0 kHz
Frame rate : 31.250 FPS (1536 spf)
Bit depth : 16 bits
Compression mode : Lossy
Stream size : 198 MiB (14%)
Alignment : Split accross interleaves
Interleave, duration : 33 ms (1.00 video frame)
Interleave, preload duratio : 500 ms



Download BRFILES | Download bigfile | Download UPLOADS

torrentads

cliqueparafazerodownload
Tags: , , , , , , , , , , , , , , ,
By WordPress