O Exorcista [Dublado -1973 -FULL HD – versão estendida 1080p]

468x60

Em Georgetown, Washington, uma atriz vai gradativamente tomando consciência que a sua filha de doze anos está tendo um comportamento completamente assustador. Deste modo, ela pede ajuda a um padre, que também um psiquiatra, e este chega a conclusão de que a garota está possuída pelo demônio. Ele solicita então a ajuda de um segundo sacerdote, especialista em exorcismo, para tentar livrar a menina desta terrível possessão.

[spoiler]General
Unique ID : 186654019300980686614292739802409888478 (0x8C6C41AA1005DAD7A90A73059CDA6ADE)
Complete name : C:\Users\Adalmir\Downloads\Video\O Exorcista-dubl-1973-FULL HD – versão estendida.mkv
Format : Matroska
Format version : Version 2
File size : 2.02 GiB
Duration : 2 h 12 min
Overall bit rate : 2 181 kb/s
Encoded date : UTC 2013-05-09 16:39:27
Writing application : mkvmerge v4.9.1 (‘Ich will’) built on Jul 11 2011 23:53:15
Writing library : libebml v1.2.1 + libmatroska v1.1.1

Video
ID : 1
Format : AVC
Format/Info : Advanced Video Codec
Format profile : High@L4
Format settings, CABAC : Yes
Format settings, ReFrames : 4 frames
Muxing mode : Header stripping
Codec ID : V_MPEG4/ISO/AVC
Duration : 2 h 12 min
Bit rate : 2 100 kb/s
Width : 1 920 pixels
Height : 1 072 pixels
Display aspect ratio : 16:9
Original display aspect rat : 16:9
Frame rate mode : Constant
Frame rate : 23.976 (24000/1001) FPS
Color space : YUV
Chroma subsampling : 4:2:0
Bit depth : 8 bits
Scan type : Progressive
Bits/(Pixel*Frame) : 0.043
Stream size : 1.86 GiB (92%)
Writing library : x264 core 120
Encoding settings : cabac=1 / ref=4 / deblock=1:0:0 / analyse=0x3:0x113 / me=hex / subme=7 / psy=1 / psy_rd=1.00:0.00 / mixed_ref=1 / me_range=16 / chroma_me=1 / trellis=1 / 8x8dct=1 / cqm=0 / deadzone=21,11 / fast_pskip=1 / chroma_qp_offset=-2 / threads=12 / sliced_threads=0 / nr=0 / decimate=1 / interlaced=0 / bluray_compat=0 / constrained_intra=0 / bframes=4 / b_pyramid=2 / b_adapt=2 / b_bias=0 / direct=1 / weightb=1 / open_gop=0 / weightp=2 / keyint=240 / keyint_min=24 / scenecut=40 / intra_refresh=0 / rc_lookahead=50 / rc=abr / mbtree=1 / bitrate=2100 / ratetol=1.0 / qcomp=0.60 / qpmin=3 / qpmax=69 / qpstep=4 / ip_ratio=1.40 / aq=1:1.00
Language : English
Default : Yes
Forced : No
Color range : Limited
Color primaries : BT.709
Transfer characteristics : BT.709
Matrix coefficients : BT.709

Audio
ID : 2
Format : MPEG Audio
Format version : Version 1
Format profile : Layer 3
Mode : Joint stereo
Mode extension : MS Stereo
Muxing mode : Header stripping
Codec ID : A_MPEG/L3
Codec ID/Hint : MP3
Duration : 2 h 12 min
Bit rate mode : Constant
Bit rate : 128 kb/s
Channel(s) : 2 channels
Sampling rate : 44.1 kHz
Compression mode : Lossy
Stream size : 121 MiB (6%)
Default : Yes
Forced : No

[/spoiler]


Download Brfiles


 

torrentads

cliqueparafazerodownload
By WordPress