Liga da Justiça Sombria [Justice League Dark, 2017] Blu-Ray – Dual Audio + Legenda

468x60

Um grupo de anti-heróis sobrenaturais se unem para enfrentar ameaças ocultas, ameaças sobrenaturais, ameaças que talvez Batman, Superman e companhia não conseguiriam vencer. O clã é formado por personagens como John Constantine, Zatanna, o Monstro do Pântano, Etrigan, o Demônio, e a Orquídea Negra.

img-download
Título Traduzido: Liga da Justiça Sombria
Título Original: Justice League Dark
Lançamento: 2017
Formato: Blu-Ray – 1080p
Áudio/Idioma: Dual Audio
Legenda/Idioma: Português do Brasil

MEDIAINFO
Format : AVC
Format/Info : Advanced Video Codec
Format profile : High@L4.1
Format settings, CABAC : Yes
Format settings, ReFrames : 4 frames
Codec ID : V_MPEG4/ISO/AVC
Duration : 1 h 15 min
Bit rate : 15.0 Mb/s
Width : 1 920 pixels
Height : 1 080 pixels
Display aspect ratio : 16:9
Frame rate mode : Constant
Frame rate : 23.976 (24000/1001) FPS
Color space : YUV
Chroma subsampling : 4:2:0
Bit depth : 8 bits
Scan type : Progressive
Bits/(Pixel*Frame) : 0.302
Stream size : 7.95 GiB (89%)
Writing library : x264 core 142 r2431+42 c69a006 tMod [8-bit@all X86]

Audio #1
ID : 2
Format : DTS
Format/Info : Digital Theater Systems
Mode : 16
Format settings, Endianness : Big
Codec ID : A_DTS
Duration : 1 h 15 min
Bit rate mode : Constant
Bit rate : 1 509 kb/s
Channel(s) : 6 channels
Channel positions : Front: L C R, Side: L R, LFE
Sampling rate : 48.0 kHz
Frame rate : 93.750 FPS (512 spf)
Bit depth : 24 bits
Compression mode : Lossy
Stream size : 819 MiB (9%)
Language : English
Default : Yes
Forced : No

Audio #2
ID : 3
Format : AC-3
Format/Info : Audio Coding 3
Mode extension : CM (complete main)
Format settings, Endianness : Big
Codec ID : A_AC3
Duration : 1 h 15 min
Bit rate mode : Constant
Bit rate : 384 kb/s
Channel(s) : 6 channels
Channel positions : Front: L C R, Side: L R, LFE
Sampling rate : 48.0 kHz
Frame rate : 31.250 FPS (1536 spf)
Bit depth : 16 bits
Compression mode : Lossy
Stream size : 208 MiB (2%)
Language : Portuguese



Download BRFILES part 1 | Download BRFILES part 2 | Download BRFILES part 3 | Download BRFILES part 4 | Download BRFILES part 5

Download bigfile part 1 | Download bigfile part 2 | Download bigfile part 3 | Download bigfile part 4 | Download bigfile part 5

Download UPLOADS part 1 | Download UPLOADS part 2 | Download UPLOADS part 3 | Download UPLOADS part 4 | Download UPLOADS part 5

Invas__o.de.Privacidade.2017.1080p.BluRay.x264-ROVERS.DUAL-GORDON.part1.rar – 2.0 GB
Liga.da.Justica.Sombria.2017.2A.1080p.BluRay.x264.DTS-MTeam-ABS.part1.rar – 2.0 GB
Liga.da.Justica.Sombria.2017.2A.1080p.BluRay.x264.DTS-MTeam-ABS.part2.rar – 2.0 GB
Liga.da.Justica.Sombria.2017.2A.1080p.BluRay.x264.DTS-MTeam-ABS.part3.rar – 2.0 GB
Liga.da.Justica.Sombria.2017.2A.1080p.BluRay.x264.DTS-MTeam-ABS.part4.rar – 2.0 GB
Liga.da.Justica.Sombria.2017.2A.1080p.BluRay.x264.DTS-MTeam-ABS.part5.rar – 1.1 GB

torrentads

cliqueparafazerodownload
  • Gabriel Lendario

    nao tem como mandar um link torrent ?

    • KaMiNa

      Este Uploader não cria postagens em torrents.

By WordPress