Fora do Rumo [Skiptrace, 2017] BDRip 720p – Dual Audio + Legenda

468x60

Bennie Chan (Jackie Chan) é um detetive de Honk Kong que, inconformado com a morte de seu parceiro, faz de tudo para encontrar o homem responsável por sua morte. As coisas se complicam e a jovem que criou, filha de seu amigo, acaba sequestrada pelos criminosos. Para recuperá-la e desmascarar o criminoso que ameaça seu emprego, sua vida e a da jovem que é sua única família, Chan aceita se juntar com um atrapalhado e inescrupuloso apostador norte-americano, Connor Watts (Johnny Knoxville).

img-download
Título Traduzido: Fora do Rumo
Título Original: Skiptrace
Lançamento: 2017
Formato: BDRip 720p
Áudio/Idioma: Dual Audio + Legenda

MEDIAINFO
Video
ID : 1
Format : AVC
Format/Info : Advanced Video Codec
Format profile : High@L3.1
Format settings, CABAC : Yes
Format settings, ReFrames : 1 frame
Codec ID : V_MPEG4/ISO/AVC
Duration : 1 h 47 min
Bit rate : 1 535 kb/s
Width : 1 280 pixels
Height : 534 pixels
Display aspect ratio : 2.40:1
Frame rate mode : Constant
Frame rate : 23.976 (24000/1001) FPS
Color space : YUV
Chroma subsampling : 4:2:0
Bit depth : 8 bits
Scan type : Progressive
Bits/(Pixel*Frame) : 0.094
Stream size : 1.15 GiB (90%)
Default : Yes
Forced : No
Color range : Limited
Color primaries : BT.709
Transfer characteristics : BT.709
Matrix coefficients : BT.709

Audio #1
ID : 2
Format : AAC
Format/Info : Advanced Audio Codec
Format profile : LC
Codec ID : A_AAC
Duration : 1 h 47 min
Bit rate : 96.0 kb/s
Channel(s) : 2 channels
Channel positions : Front: L R
Sampling rate : 44.1 kHz
Frame rate : 43.066 FPS (1024 spf)
Compression mode : Lossy
Stream size : 74.0 MiB (6%)
Language : Portuguese
Default : Yes
Forced : No

Audio #2
ID : 3
Format : MPEG Audio
Format version : Version 1
Format profile : Layer 3
Codec ID : A_MPEG/L3
Codec ID/Hint : MP3
Duration : 1 h 47 min
Bit rate mode : Constant
Bit rate : 64.0 kb/s
Channel(s) : 1 channel
Sampling rate : 44.1 kHz
Frame rate : 38.281 FPS (1152 spf)
Compression mode : Lossy
Stream size : 49.3 MiB (4%)
Default : No
Forced : No

Text
ID : 4
Format : UTF-8
Codec ID : S_TEXT/UTF8
Codec ID/Info : UTF-8 Plain Text
Duration : 1 h 45 min
Bit rate : 35 b/s
Count of elements : 1057
Stream size : 27.5 KiB (0%)



Download BRFILES | Download UPLOADS

torrentads

cliqueparafazerodownload
By WordPress