Estrelas Além do Tempo [Hidden Figures, 2017] DVDScr – Legendado

468x60

ESTRELAS ALÉM DO TEMPO é a história incrível de Katherine Johnson (Taraji P. Henson), Dorothy Vaughn (Octavia Spencer) e Mary Jackson (Janelle Monáe) – brilhantes mulheres afro-americanas que trabalharam na NASA e foram os cérebros por trás de uma das maiores operações da História: o lançamento em órbita do astronauta John Glenn, uma conquista fantástica que restaurou a confiança do país, mudou a Corrida Espacial e galvanizou o mundo. O trio visionário atravessou todas as barreiras de gênero e raça para inspirar gerações para sonhar grande.

img-download
Título Traduzido: Estrelas Além do Tempo
Título Original: Hidden Figures
Lançamento: 2017
Formato: DVDScr
Áudio/Idioma: Legendado
Legenda/Idioma: Português do Brasil

MEDIAINFO
Format : MPEG-4 Visual
Format profile : Advanced Simple@L5
Format settings, BVOP : 2
Format settings, QPel : No
Format settings, GMC : No warppoints
Format settings, Matrix : Default (H.263)
Muxing mode : Packed bitstream
Codec ID : XVID
Codec ID/Hint : XviD
Duration : 2 h 6 min
Bit rate : 1 509 kb/s
Width : 720 pixels
Height : 304 pixels
Display aspect ratio : 2.35:1
Frame rate : 28.830 FPS
Color space : YUV
Chroma subsampling : 4:2:0
Bit depth : 8 bits
Scan type : Progressive
Compression mode : Lossy
Bits/(Pixel*Frame) : 0.239
Stream size : 1.34 GiB (85%)
Writing library : XviD 66

Audio
ID : 1
Format : AC-3
Format/Info : Audio Coding 3
Mode extension : CM (complete main)
Format settings, Endianness : Big
Codec ID : 2000
Duration : 2 h 6 min
Bit rate mode : Constant
Bit rate : 256 kb/s
Channel(s) : 2 channels
Channel positions : Front: L R
Sampling rate : 48.0 kHz
Frame rate : 31.250 FPS (1536 spf)
Bit depth : 16 bits
Compression mode : Lossy
Stream size : 232 MiB (14%)
Alignment : Aligned on interleaves
Interleave, duration : 64 ms (1.85 video frames)
Interleave, preload duratio : 192 ms
Title : audio



Download BRFILES | Download bigfile | Download UPLOADS

torrentads

cliqueparafazerodownload
By WordPress