Don Verdean: O que o Passado Nos Reserva [Don Verdean, 2017] BDRip 720p – Dual Audio + Legenda

468x60


Don Verdean (Sam Rockwell) é um arqueólogo bíblico contratado por um pastor da igreja local para encontrar relíquias promotoras de fé na Terra Santa. Mas depois de uma expedição sem grandes resultados, ele se vê em meio a uma briga entre duas congregações competitivas e rancorosas, sendo forçado a usar sua criatividade para sair desta confusão. Quando os planos fogem de seu controle, Don deve começar a buscar o que é realmente é importante para ele.

img-download
Título Traduzido: Don Verdean: O que o Passado Nos Reserva
Título Original: Don Verdean
Lançamento: 2017
Formato: BDRip 720p
Áudio/Idioma: Dual Audio + Legenda

MEDIAINFO
Video
ID : 1
Format : AVC
Format/Info : Advanced Video Codec
Format profile : High@L3.1
Format settings, CABAC : Yes
Format settings, ReFrames : 1 frame
Codec ID : V_MPEG4/ISO/AVC
Duration : 1 h 36 min
Bit rate : 1 355 kb/s
Width : 1 280 pixels
Height : 720 pixels
Display aspect ratio : 16:9
Frame rate mode : Constant
Frame rate : 23.976 (24000/1001) FPS
Color space : YUV
Chroma subsampling : 4:2:0
Bit depth : 8 bits
Scan type : Progressive
Bits/(Pixel*Frame) : 0.061
Stream size : 931 MiB (89%)
Default : Yes
Forced : No
Color range : Limited
Color primaries : BT.709
Transfer characteristics : BT.709
Matrix coefficients : BT.709

Audio #1
ID : 2
Format : AAC
Format/Info : Advanced Audio Codec
Format profile : LC
Codec ID : A_AAC
Duration : 1 h 36 min
Bit rate : 96.0 kb/s
Channel(s) : 2 channels
Channel positions : Front: L R
Sampling rate : 44.1 kHz
Frame rate : 43.066 FPS (1024 spf)
Compression mode : Lossy
Stream size : 66.0 MiB (6%)
Language : Portuguese
Default : Yes
Forced : No

Audio #2
ID : 3
Format : MPEG Audio
Format version : Version 1
Format profile : Layer 3
Codec ID : A_MPEG/L3
Codec ID/Hint : MP3
Duration : 1 h 36 min
Bit rate mode : Constant
Bit rate : 64.0 kb/s
Channel(s) : 1 channel
Sampling rate : 44.1 kHz
Frame rate : 38.281 FPS (1152 spf)
Compression mode : Lossy
Stream size : 44.0 MiB (4%)
Default : No
Forced : No

Text #1
ID : 4
Format : UTF-8
Codec ID : S_TEXT/UTF8
Codec ID/Info : UTF-8 Plain Text
Duration : 1 h 35 min
Bit rate : 0 b/s
Count of elements : 15
Stream size : 417 Bytes (0%)
Default : Yes
Forced : No

Text #2
ID : 5
Format : UTF-8
Codec ID : S_TEXT/UTF8
Codec ID/Info : UTF-8 Plain Text
Duration : 1 h 35 min
Bit rate : 84 b/s
Count of elements : 1592
Stream size : 59.3 KiB (0%)




Download BRFILES | Download UPLOADS

torrentads

cliqueparafazerodownload
Tags: , , , , , , , , , , , , , , ,
By WordPress