Até o Último Homem [Hacksaw Ridge, 2017] DVDSrc – Legendado

468x60

O longa é baseado na história real de Desmond T. Doss (Andrew Garfield), o primeiro objetor [alguém que reivindica o direito de recusar o serviço militar] de consciência na história dos EUA a receber a Medalha de Honra do Congresso. Doss foi um médico do Exército dos EUA que serviu na Segunda Guerra Mundial, durante a Batalha de Okinawa e se recusou a matar. O Presidente Truman concedeu-lhe a Medalha de Honra por salvar tantas vidas.

img-download
Título Traduzido: Até o Último Homem
Título Original: Hacksaw Ridge
Lançamento: 2017
Formato: DVDSrc
Áudio/Idioma: Legendado
Legenda/Idioma: Português do Brasil

MEDIAINFO
Format : MPEG-4 Visual
Format profile : Advanced Simple@L5
Format settings, BVOP : 2
Format settings, QPel : Yes
Format settings, GMC : No warppoints
Format settings, Matrix : Default (H.263)
Muxing mode : Packed bitstream
Codec ID : XVID
Codec ID/Hint : XviD
Duration : 2 h 19 min
Bit rate : 1 598 kb/s
Width : 720 pixels
Height : 304 pixels
Display aspect ratio : 2.35:1
Frame rate : 29.970 (30000/1001) FPS
Color space : YUV
Chroma subsampling : 4:2:0
Bit depth : 8 bits
Scan type : Progressive
Compression mode : Lossy
Bits/(Pixel*Frame) : 0.244
Stream size : 1.56 GiB (86%)
Writing library : XviD 1.2.1 (UTC 2008-12-04)

Audio
ID : 1
Format : AC-3
Format/Info : Audio Coding 3
Mode extension : CM (complete main)
Format settings, Endianness : Big
Codec ID : 2000
Duration : 2 h 19 min
Bit rate mode : Constant
Bit rate : 256 kb/s
Channel(s) : 2 channels
Channel positions : Front: L R
Sampling rate : 48.0 kHz
Frame rate : 31.250 FPS (1536 spf)
Bit depth : 16 bits
Compression mode : Lossy
Stream size : 255 MiB (14%)
Alignment : Split accross interleaves
Interleave, duration : 33 ms (1.00 video frame)
Interleave, preload duratio : 500 ms



Download BRFILES | Download bigfile | Download UPLOADS

torrentads

cliqueparafazerodownload
By WordPress