As Travessuras de uma Sereia [Mei Ren Yu, 2017] BDRip 720p – Dual Audio + Legenda

468x60

Um homem foi sequestrado por uma sereia. Ele consegue fugir e vai direto à delegacia contar o crime. Mas para sua frustração, a polícia está longe de resolver o caso, pois nem consegue fazer um retrato falado da tal sereia. Do mesmo diretor do filme “Kung-Fusão”

img-download
Título Traduzido: As Travessuras de uma Sereia
Título Original: Mei Ren Yu
Lançamento: 2017
Formato: BDRip 720p
Áudio/Idioma: Dual Audio + Legenda

MEDIAINFO
Video
ID : 1
Format : AVC
Format/Info : Advanced Video Codec
Format profile : High@L3.1
Format settings, CABAC : Yes
Format settings, ReFrames : 1 frame
Codec ID : V_MPEG4/ISO/AVC
Duration : 1 h 33 min
Bit rate : 2 377 kb/s
Width : 1 280 pixels
Height : 674 pixels
Display aspect ratio : 1.899
Frame rate mode : Constant
Frame rate : 23.976 (24000/1001) FPS
Color space : YUV
Chroma subsampling : 4:2:0
Bit depth : 8 bits
Scan type : Progressive
Bits/(Pixel*Frame) : 0.115
Stream size : 1.56 GiB (94%)
Default : Yes
Forced : No
Color range : Limited
Color primaries : BT.709
Transfer characteristics : BT.709
Matrix coefficients : BT.709

Audio #1
ID : 2
Format : AAC
Format/Info : Advanced Audio Codec
Format profile : LC
Codec ID : A_AAC
Duration : 1 h 33 min
Bit rate : 96.0 kb/s
Channel(s) : 2 channels
Channel positions : Front: L R
Sampling rate : 44.1 kHz
Frame rate : 43.066 FPS (1024 spf)
Compression mode : Lossy
Stream size : 64.4 MiB (4%)
Title : yishioon
Language : Portuguese
Default : Yes
Forced : No

Audio #2
ID : 3
Format : MPEG Audio
Format version : Version 1
Format profile : Layer 3
Codec ID : A_MPEG/L3
Codec ID/Hint : MP3
Duration : 1 h 33 min
Bit rate mode : Constant
Bit rate : 64.0 kb/s
Channel(s) : 1 channel
Sampling rate : 44.1 kHz
Frame rate : 38.281 FPS (1152 spf)
Compression mode : Lossy
Stream size : 42.9 MiB (3%)
Title : yishioon
Default : No
Forced : No

Text
ID : 4
Format : UTF-8
Codec ID : S_TEXT/UTF8
Codec ID/Info : UTF-8 Plain Text
Duration : 1 h 27 min
Bit rate : 44 b/s
Count of elements : 1024
Stream size : 28.5 KiB (0%)




Download BRFILES | Download UPLOADS

torrentads

cliqueparafazerodownload
Tags: , , , , , , , , , , , , , , ,
By WordPress