Aliados [Allied, 2017] DVDScr – Legendado

468x60

Ano 1942, em uma missão para eliminar um embaixador nazista em Casablanca, no Marrocos, os espiões Max Vatan (Brad Pitt) e Marianne Beausejour (Marion Cotillard) se apaixonam perdidamente e decidem se casar. Os problemas começam anos depois, com suspeitas sobre uma conexão entre Marianne e os alemães. Intrigado, Max decide investigar o passado da companheira e os dias de felicidade do casal vão por água abaixo.

img-download
Título Traduzido: Aliados
Título Original: Allied
Lançamento: 2017
Formato: DVDScr
Áudio/Idioma: Legendado
Legenda/Idioma: Português do Brasil

MEDIAINFO
Format : MPEG-4 Visual
Format profile : Advanced Simple@L5
Format settings, BVOP : 2
Format settings, QPel : Yes
Format settings, GMC : No warppoints
Format settings, Matrix : Default (H.263)
Muxing mode : Packed bitstream
Codec ID : XVID
Codec ID/Hint : XviD
Duration : 2 h 4 min
Bit rate : 1 891 kb/s
Width : 720 pixels
Height : 304 pixels
Display aspect ratio : 2.35:1
Frame rate : 29.970 (30000/1001) FPS
Color space : YUV
Chroma subsampling : 4:2:0
Bit depth : 8 bits
Scan type : Progressive
Compression mode : Lossy
Bits/(Pixel*Frame) : 0.288
Stream size : 1.65 GiB (88%)
Writing library : XviD 1.2.1 (UTC 2008-12-04)

Audio
ID : 1
Format : AC-3
Format/Info : Audio Coding 3
Mode extension : CM (complete main)
Format settings, Endianness : Big
Codec ID : 2000
Duration : 2 h 4 min
Bit rate mode : Constant
Bit rate : 256 kb/s
Channel(s) : 2 channels
Channel positions : Front: L R
Sampling rate : 48.0 kHz
Frame rate : 31.250 FPS (1536 spf)
Bit depth : 16 bits
Compression mode : Lossy
Delay relative to video : 26 ms
Stream size : 228 MiB (12%)
Alignment : Split accross interleaves
Interleave, duration : 33 ms (1.00 video frame)
Interleave, preload duratio : 500 ms



Download BRFILES | Download bigfile

torrentads

cliqueparafazerodownload
By WordPress